Télécharger Part 3 | Faster Pastor 11 This Ravished Rose The Maligned Monarch Beauty Killers Geschichte Des Antisemitismus Kittens | Running Man Episode 128

+ ShareSpark.net
|- Recent Posts

10% Off with Visa

Recent Posts

Pages: 1 2 3 4 ... 10
4
Brow ye Marvel Cinematic Universe Collection dual audio Hindi ke sath available krao same size me same Google drive Please
5
Plzz @dark bro  upload pain & Gain
Hindi 128kbps
2h9m
On zippshare link
Multiple not open in my phone.
Thanks for complete my All requests  :thank: :rep:
6
:title:
Dookudu (2011) 720p UNCUT BluRay x264 Eng Subs [Dual Audio] [Hindi DD 2.0 - Telugu DD 5.1]

Exclusive By -=!Dr.STAR!=-

The Real Tiger !!!


[-=!Dr.STAR!=-]

Perfect Synchronization at its Best - Brought to you By STAR...... Doctor STAR  :hukka:

STAR Release Exclusively By STAR Uploader of Team SSX  :smoke:



 :imdb:

Quote

 :plot:
Quote
Ajay, (Mahesh Babu) an undercover cop, is assigned to catch a dangerous mafia don with whom he has a personal score to settle.

:info:
---Movie Details---
Quote

General
Format                                   : Matroska
Format version                           : Version 4 / Version 2
File size                                : 1.73 GiB
Duration                                 : 2h 54mn
Overall bit rate                         : 1 413 Kbps

Video
ID                                       : 1
Format                                   : AVC
Format/Info                              : Advanced Video Codec
Codec ID                                 : V_MPEG4/ISO/AVC
Duration                                 : 2h 54mn
Bit rate                                 : 1 059 Kbps
Width                                    : 1 280 pixels
Height                                   : 544 pixels
Display aspect ratio                     : 2.35:1
Frame rate mode                          : Constant
Frame rate                               : 24.000 fps
Title                                    : -=!Dr.STAR!=-
Writing library                          : x264 core 148 r2638 7599210

Audio #1
ID                                       : 2
Format                                   : AC-3
Format profile                           : Dolby Digital
Codec ID                                 : A_AC3
Duration                                 : 2h 54mn
Bit rate mode                            : Constant
Bit rate                                 : 192 Kbps
Channel(s)                               : 2 channels
Channel positions                        : Front: L R
Sampling rate                            : 48.0 KHz
Title                                    : -=!Dr.STAR!=-
Language                                 : Hindi

Audio #2
ID                                       : 3
Format                                   : AC-3
Format/Info                              : Audio Coding 3
Codec ID                                 : A_AC3
Duration                                 : 2h 54mn
Bit rate mode                            : Constant
Bit rate                                 : 160 Kbps
Channel(s)                               : 6 channels
Channel positions                        : Front: L C R, Side: L R, LFE
Sampling rate                            : 44.1 KHz
Title                                    : -=!Dr.STAR!=-
Language                                 : Telugu

Text
ID                                       : 4
Format                                   : UTF-8
Codec ID                                 : S_TEXT/UTF8
Codec ID/Info                            : UTF-8 Plain Text
Title                                    : -=!Dr.STAR!=-
Language                                 : English 

::::ScreenShots::::


 :ss:


:download:

Quote

Sample Link



Movie Links Exclusive @ SSX By -=!Dr.STAR!=-




:note:
Quote
Uploader's Note

It's Time for Mahesh Babu's Telugu Action-Comedy-Drama Movie in Perfect Sync and UNCUT Hindi Audio... (It's Indian Dubbed Original Audio)
STAR Release as 720p UNCUT BRRip Dual Audio with Absolutely Lip to Lip Sync By -=!Dr.STAR!=-
Video - TamilMV, Hindi Audio - The Punisher... Million Thanx !!!
Plz Note - Minimum Telugu audio is added in between Hindi Audio to make perfect Sync Dual Audio...
as Full Movie is in Hindi Dubbed including songs... except 1 song...
So Final Dr.STAR Version of Dookudu...
Perfect Sync Credits to The STAR Releaser -=!Dr.STAR!=-
So......Give Credits wherever you share/use :thumbs:
 :thank: for Visit :hukka:
Just leave Only 1 Valuable Comment - I will Reply with more STAR Movies.... SO KEEP COMMENTING  :hats:

Respect to Sharespark and Staff and Members - For providing me Platform and Support  :drinks:
7
Chalo Jeete Hain (2018) 12mbps 1080p WEBHD ESub - DTOne















General
Complete name : Chalo Jeete Hain (2018) 12mbps 1080p WEBHD ESub - DTOne.mp4
Format : MPEG-4
Format profile : Base Media
Codec ID : isom (isom/iso2/avc1/mp41)
File size : 2.71 GiB
Duration : 32 min 18 s
Overall bit rate : 12.0 Mb/s
Writing application : Lavf58.17.101

Video
ID : 1
Format : AVC
Format/Info : Advanced Video Codec
Format profile : [email protected]
Format settings : CABAC / 4 Ref Frames
Format settings, CABAC : Yes
Format settings, RefFrames : 4 frames
Codec ID : avc1
Codec ID/Info : Advanced Video Coding
Duration : 32 min 18 s
Bit rate : 12.0 Mb/s
Width : 1 920 pixels
Height : 800 pixels
Display aspect ratio : 2.40:1
Frame rate mode : Variable
Frame rate : 24.000 FPS
Minimum frame rate : 24.000 FPS
Maximum frame rate : 24.390 FPS
Color space : YUV
Chroma subsampling : 4:2:0
Bit depth : 8 bits
Scan type : Progressive
Bits/(Pixel*Frame) : 0.326
Stream size : 2.67 GiB (98%)
Writing library : x264 core 138

Audio
ID : 2
Format : AAC
Format/Info : Advanced Audio Codec
Format profile : LC
Codec ID : mp4a-40-2
Duration : 32 min 18 s
Bit rate mode : Constant
Bit rate : 192 kb/s
Channel(s) : 2 channels
Channel positions : Front: L R
Sampling rate : 48.0 kHz
Frame rate : 46.875 FPS (1024 SPF)
Compression mode : Lossy
Stream size : 44.4 MiB (2%)
Default : Yes
Alternate group : 1




 :ss:















 :download:





















8
Mubarakan (2017) 1080p BluRay Hindi x264 DD 5.1 Mafiaking M2Tv
















General
Format : Matroska
Format version : Version 4 / Version 2
File size : 2.65 GiB
Duration : 2 h 35 min
Overall bit rate : 2 442 kb/s

Video
ID : 1
Format : AVC
Format/Info : Advanced Video Codec
Format profile : [email protected]
Format settings, CABAC : Yes
Format settings, RefFrames : 4 frames
Codec ID : V_MPEG4/ISO/AVC
Duration : 2 h 35 min
Bit rate : 1 800 kb/s
Width : 1 920 pixels
Height : 800 pixels
Display aspect ratio : 2.40:1
Frame rate mode : Constant
Frame rate : 24.000 FPS
Color space : YUV
Chroma subsampling : 4:2:0
Bit depth : 8 bits
Scan type : Progressive
Bits/(Pixel*Frame) : 0.049
Stream size : 1.95 GiB (74%)
Title : Mafiaking
Language : Hindi
Default : Yes
Forced : No

Audio
ID : 2
Format : AC-3
Format/Info : Audio Coding 3
Format settings, Endianness : Big
Codec ID : A_AC3
Duration : 2 h 35 min
Bit rate mode : Constant
Bit rate : 640 kb/s
Channel(s) : 6 channels
Channel positions : Front: L C R, Side: L R, LFE
Sampling rate : 48.0 kHz
Frame rate : 31.250 FPS (1536 SPF)
Bit depth : 16 bits
Compression mode : Lossy
Stream size : 710 MiB (26%)
Title : Mafiaking
Language : Hindi
Service kind : Complete Main
Default : Yes
Forced : No




 :ss:
















 :download:





















9
Sudden Death (1995) BluRay 720p x264 [Dual Audio] [Hindi - Eng] AAC Esub  By ~Hammer






-=====================Source Credit=====================-
:::::::::::::::::::> Video ---- Yifi
:::::::::::::::::::> Audio ---- Org VCD DD 2.0 224Kbps Hindi By ~Hammer






Format                                   : Matroska
Format version                           : Version 4 / Version 2
File size                                : 1 004 MiB
Duration                                 : 1 h 49 min
Overall bit rate                         : 1 276 kb/s
Encoded date                             : UTC 2018-08-15 04:38:37
Writing application                      : mkvmerge v24.0.0 ('Beyond The Pale') 64-bit
Writing library                          : libebml v1.3.6 + libmatroska v1.4.9
Cover                                    : Yes
Attachments                              : Sudden Death (1995) Cover.jpg

Video
ID                                       : 1
Format                                   : AVC
Format/Info                              : Advanced Video Codec
Format profile                           : [email protected]
Format settings                          : CABAC / 4 Ref Frames
Format settings, CABAC                   : Yes
Format settings, RefFrames               : 4 frames
Codec ID                                 : V_MPEG4/ISO/AVC
Duration                                 : 1 h 49 min
Bit rate                                 : 1 050 kb/s
Width                                    : 1 280 pixels
Height                                   : 544 pixels
Display aspect ratio                     : 2.35:1
Frame rate mode                          : Constant
Frame rate                               : 23.976 (24000/1001) FPS
Color space                              : YUV
Chroma subsampling                       : 4:2:0
Bit depth                                : 8 bits
Scan type                                : Progressive
Bits/(Pixel*Frame)                       : 0.063
Stream size                              : 826 MiB (82%)
Writing library                          : x264 core 152
Language                                 : English
Default                                  : Yes
Forced                                   : No

Audio #1
ID                                       : 2
Format                                   : AAC
Format/Info                              : Advanced Audio Codec
Format profile                           : HE-AAC / LC
Format settings                          : Explicit
Codec ID                                 : A_AAC-2
Duration                                 : 1 h 49 min
Bit rate                                 : 128 kb/s
Channel(s)                               : 2 channels
Channel positions                        : Front: L R
Sampling rate                            : 48.0 kHz / 24.0 kHz
Frame rate                               : 23.438 FPS (1024 SPF)
Compression mode                         : Lossy
Delay relative to video                  : 31 ms
Stream size                              : 101 MiB (10%)
Language                                 : Hindi
Default                                  : Yes
Forced                                   : Yes

Audio #2
ID                                       : 3
Format                                   : AAC
Format/Info                              : Advanced Audio Codec
Format profile                           : HE-AAC / LC
Format settings                          : Explicit
Codec ID                                 : A_AAC-2
Duration                                 : 1 h 49 min
Bit rate                                 : 96.0 kb/s
Channel(s)                               : 2 channels
Channel positions                        : Front: L R
Sampling rate                            : 48.0 kHz / 24.0 kHz
Frame rate                               : 23.438 FPS (1024 SPF)
Compression mode                         : Lossy
Stream size                              : 75.5 MiB (8%)
Language                                 : English
Default                                  : No
Forced                                   : No

Text
ID                                       : 4
Format                                   : UTF-8
Codec ID                                 : S_TEXT/UTF8
Codec ID/Info                            : UTF-8 Plain Text
Duration                                 : 1 h 43 min
Bit rate                                 : 55 b/s
Count of elements                        : 1014
Stream size                              : 41.8 KiB (0%)
Language                                 : English
Default                                  : Yes
Forced                                   : Yes




 :ss:








 :download:




















10
Legion 2010 x264 720p Esub BluRay Dual Audio English Hindi GOPISAHI.









Format : Matroska

Format version : Version 4 / Version 2

File size : 805 MiB

Duration : 1 h 40 min

Overall bit rate : 1 125 kb/s

Movie name : Legion 2010 GOPISAHI


Video

Format : AVC

Format/Info : Advanced Video Codec

Codec ID : V_MPEG4/ISO/AVC

Duration : 1 h 40 min

Bit rate : 952 kb/s

Width : 1 280 pixels

Height : 528 pixels

Display aspect ratio : 2.40:1

Frame rate mode : Constant

Frame rate : 23.976 (24000/1001) FPS

Color space : YUV

Chroma subsampling : 4:2:0

Bit depth : 8 bits

Scan type : Progressive

Bits/(Pixel*Frame) : 0.059

Stream size : 681 MiB (85%)

Writing library : x264 core 120 r2164 da19765


Audio #1

Format : AAC

Format/Info : Advanced Audio Codec

Duration : 1 h 40 min

Bit rate : 86.8 kb/s

Channel(s) : 6 channels

Channel positions : Front: L C R, Side: L R, LFE

Sampling rate : 44.1 kHz

Frame rate : 43.066 FPS (1024 SPF)

Compression mode : Lossy

Stream size : 62.2 MiB (8%)

Title : GOPISAHI

Language : Hindi


Audio #2

Format : AAC

Format/Info : Advanced Audio Codec

Duration : 1 h 40 min

Bit rate : 83.4 kb/s

Channel(s) : 6 channels

Channel positions : Front: L C R, Side: L R, LFE

Sampling rate : 44.1 kHz

Frame rate : 43.066 FPS (1024 SPF)

Compression mode : Lossy

Stream size : 59.7 MiB (7%)

Title : GOPISAHI

Language : English


Text

Language : English





 :ss:












 :download:



















Pages: 1 2 3 4 ... 10


Back to top